<?xml version="1.0" standalone="no"?>
<!DOCTYPE svg PUBLIC "-//W3C//DTD SVG 1.1//EN" "http://www.w3.org/Graphics/SVG/1.1/DTD/svg11.dtd" >
<!--
2018-7-24: Created with FontForge (http://fontforge.org)
-->
<svg xmlns="http://www.w3.org/2000/svg" xmlns:xlink="http://www.w3.org/1999/xlink" version="1.1">
<metadata>
Created by FontForge 20160405 at Tue Jul 24 06:04:44 2018
 By Apache
Copyright (c) 2018, Apache
</metadata>
<defs>
<font id="Flaticon" horiz-adv-x="512" >
  <font-face 
    font-family="Flaticon"
    font-weight="400"
    font-stretch="normal"
    units-per-em="512"
    panose-1="2 0 5 3 0 0 0 0 0 0"
    ascent="448"
    descent="-64"
    bbox="-0.0139605 -64.0078 512.003 448"
    underline-thickness="25.6"
    underline-position="-51.2"
    unicode-range="U+0020-F113"
  />
    <missing-glyph />
    <glyph glyph-name="space" unicode=" " horiz-adv-x="200" 
 />
    <glyph glyph-name="uniF101" unicode="&#xf101;" 
d="M380.872 29.2715v148.955l69.8154 69.8164v-288.585h-450.688v450.688h382.413l-69.8164 -69.8154h-242.781v-311.06h311.057zM146.303 246.501l69.1445 -69.1445l247.186 247.187l49.3672 -49.3662l-296.553 -296.554l-118.512 118.512z" />
    <glyph glyph-name="uniF102" unicode="&#xf102;" 
d="M398.715 448c62.5635 0 113.285 -50.7217 113.285 -113.285v-285.43c0 -62.5635 -50.7217 -113.285 -113.274 -113.285h-285.44c-62.5635 0 -113.285 50.7217 -113.285 113.264v285.451c0 62.5635 50.7217 113.285 113.285 113.285h285.43zM445.218 49.2852v285.43
c0 25.6445 -20.8584 46.5029 -46.4922 46.5029h-285.44c-25.6445 0 -46.5029 -20.8584 -46.5029 -46.5029v-285.43c0 -25.6445 20.8584 -46.5029 46.5029 -46.5029h285.43c25.6445 0 46.5029 20.8584 46.5029 46.5029zM244.035 77.3789
c-6.77832 -6.77832 -15.9951 -10.5967 -25.5781 -10.5967s-18.7988 3.81836 -25.5781 10.5967l-79.2705 79.2705c-14.125 14.125 -14.125 37.0312 0 51.1562c14.1357 14.1348 37.0312 14.1348 51.167 0l47.2256 -47.2158c3.57324 -3.56152 9.34961 -3.56152 12.9229 0
l127.878 127.878c14.1357 14.1357 37.0195 14.1357 51.166 0c14.1475 -14.1357 14.1475 -37.0312 0 -51.167z" />
    <glyph glyph-name="uniF104" unicode="&#xf104;" 
d="M225.066 108.535l-85.3242 68.2666c-3.67773 2.94434 -4.27539 8.31152 -1.33105 11.998c2.93457 3.66113 8.31934 4.27539 11.9893 1.33105l79.0098 -63.2061l131.148 147.541c3.13184 3.52441 8.5166 3.84863 12.0498 0.708984
c3.52344 -3.12402 3.83984 -8.52539 0.708008 -12.041l-136.533 -153.6c-1.68164 -1.89453 -4.02832 -2.86719 -6.38281 -2.86719c-1.87793 0 -3.76367 0.614258 -5.33398 1.86816zM0 448h512v-512h-512v512zM494.934 -46.9336v477.867h-477.867v-477.867h477.867z" />
    <glyph glyph-name="uniF10B" unicode="&#xf10b;" 
d="M500.653 162.128c11.0918 -15.2764 6.38281 -36.9355 -10.0449 -45.9346l-14.2295 -7.95215c-11.8242 -6.4873 -18.1016 -19.8799 -15.6953 -33.1689l2.92969 -16.0088c3.45312 -18.5195 -10.1494 -35.9941 -29.0879 -37.04l-16.3232 -0.941406
c-13.4971 -0.837891 -25.0068 -10.1494 -28.5645 -23.124l-4.29004 -15.6953c-5.02246 -18.3105 -24.9033 -28.042 -42.377 -20.8223l-15.0674 6.17383c-12.4512 5.12695 -26.7861 1.67383 -35.6797 -8.47559l-10.6729 -12.3467
c-12.4512 -14.2305 -34.5293 -14.4395 -47.1895 -0.314453l-10.8818 12.1377c-9.10352 10.0449 -23.4385 13.1836 -35.8896 7.84766l-14.9619 -6.4873c-17.4746 -7.5332 -37.459 1.88379 -42.6904 20.0898l-4.5 15.6953c-3.7666 12.9746 -15.3809 22.1816 -28.8789 22.7051
l-16.3223 0.732422c-18.9385 0.732422 -32.8555 17.9971 -29.7158 36.6221l2.8252 16.0088c2.19727 13.2881 -4.29004 26.5771 -16.2188 32.959l-14.335 7.74316c-16.7412 8.99902 -21.7637 30.4482 -10.8818 45.9346l9.41699 13.2881
c7.74316 11.0908 7.63867 25.8447 -0.313477 36.7266l-9.62598 13.1836c-11.1963 15.2764 -6.38281 36.8311 10.1494 46.0391l14.2295 7.95215c11.8242 6.4873 18.1016 19.8799 15.6953 33.1689l-2.92969 16.0088c-3.45312 18.5195 10.1494 35.9941 29.0879 37.04
l16.3232 0.941406c13.4971 0.732422 24.9023 10.0449 28.3555 23.2285l4.29004 15.6953c5.02246 18.3105 24.9023 28.042 42.376 20.8223l15.0674 -6.17383c12.4521 -5.12695 26.7861 -1.67383 35.6807 8.47559l10.6719 12.3467
c12.4521 14.2305 34.5293 14.4395 47.1904 0.314453l10.8818 -12.1377c9.10254 -10.1494 23.4375 -13.2891 35.8887 -7.95215l14.9629 6.4873c17.4736 7.5332 37.459 -1.88379 42.6904 -20.0898l4.49902 -15.6953c3.76758 -12.9746 15.3818 -22.1816 28.8789 -22.7051
l16.3232 -0.732422c18.9385 -0.732422 32.8545 -17.9971 29.7158 -36.6221l-2.7207 -16.1133c-2.19727 -13.2881 4.29004 -26.5771 16.2188 -32.96l14.334 -7.74219c16.7422 -8.99902 21.7646 -30.4482 10.8828 -45.9346l-9.41797 -13.2881
c-7.74219 -11.0918 -7.6377 -25.8447 0.314453 -36.7266zM256.021 26.627c91.2402 0 165.216 73.9766 165.216 165.217s-73.9756 165.216 -165.216 165.216s-165.217 -73.9756 -165.217 -165.216s73.9766 -165.217 165.217 -165.217zM234.885 187.449l57.0254 56.6064
c8.78906 8.68457 23.0186 8.68457 31.7031 -0.104492v0c8.68457 -8.78906 8.68457 -23.0195 -0.104492 -31.7041l-56.9199 -56.6064l-16.3232 -16.2188c-8.58008 -8.47461 -22.3916 -8.47461 -30.8672 0.104492l-16.3223 16.3232l-14.6494 14.7529
c-8.68457 8.79004 -8.68457 23.0195 0.105469 31.7041v0c8.78906 8.68457 23.0186 8.68457 31.7031 -0.104492z" />
    <glyph glyph-name="uniF113" unicode="&#xf113;" 
d="M489.643 414.674c59.5371 -31.9883 -15.9951 -106.634 -39.9883 -136.847c-38.21 -48.874 -78.1982 -95.9727 -117.297 -143.957c-30.2119 -36.4326 -56.8701 -76.4219 -89.751 -111.966c-18.6602 -20.4385 -50.6504 -57.7607 -81.752 -55.9834
c-25.7705 0.888672 -47.9854 19.5498 -64.8691 37.3223c-39.9883 41.7637 -94.1934 107.521 -95.9707 168.837c-0.888672 47.0967 41.7646 32.8789 67.5352 13.3291c35.5439 -27.5459 63.0918 -61.3125 95.082 -92.416c14.2178 26.6582 37.3213 49.7627 58.6484 71.0898
c37.3213 38.2119 71.0889 77.3105 107.522 116.41c32.8799 35.5439 62.2041 74.6436 96.8594 108.411c15.1064 14.2178 40.876 38.21 63.9805 25.7695zM39.1123 175.635c-6.2207 3.55566 -10.6631 4.44434 -13.3291 2.66699v0
c3.55469 -1.77734 6.21973 -2.66699 9.77441 -3.55469c1.77734 0.887695 2.66602 0.887695 3.55469 0.887695z" />
    <glyph glyph-name="uniF107" unicode="&#xf107;" 
d="M255.999 448c141.159 0 255.998 -114.839 255.998 -255.999c0 -141.159 -114.842 -256.001 -255.998 -256.001c-141.157 0 -255.999 114.842 -255.999 256.001c0 141.16 114.842 255.999 255.999 255.999zM402.998 235.241
c14.1143 14.1152 14.1143 37.0811 -0.00585938 51.2012c-6.83887 6.83887 -15.9287 10.6025 -25.5986 10.6025c-9.6709 0 -18.7607 -3.76367 -25.5996 -10.6025l-135.229 -135.229l-56.3662 56.3652c-6.83594 6.84082 -15.9297 10.6074 -25.5996 10.6074
c-9.67285 0 -18.7627 -3.7666 -25.5986 -10.6055c-6.83887 -6.83789 -10.6055 -15.9287 -10.6055 -25.6016c0 -9.66992 3.7666 -18.7607 10.6055 -25.5986l81.9688 -81.9688c6.83789 -6.83887 15.9287 -10.6025 25.5986 -10.6025s18.7607 3.76367 25.5996 10.6025z" />
    <glyph glyph-name="uniF100" unicode="&#xf100;" 
d="M465.455 448c25.6592 0 46.5449 -20.875 46.5459 -46.5459v-418.909c0 -25.6719 -20.8867 -46.5459 -46.5459 -46.5459h-418.909c-25.6592 0 -46.5459 20.876 -46.5459 46.5459v418.909c0 25.6709 20.8867 46.5459 46.5459 46.5459h418.909zM427.134 283.683
c4.54395 4.54492 4.54395 11.9131 0.000976562 16.457l-16.4531 16.4521c-4.54492 4.54395 -11.9131 4.54395 -16.4561 0l-184.772 -184.772l-91.6816 91.6826c-4.54492 4.54297 -11.9131 4.54297 -16.4561 0l-16.4531 -16.4531
c-4.54395 -4.54492 -4.54395 -11.9131 0 -16.457l108.137 -108.136c4.54492 -4.5459 10.5 -6.81836 16.4541 -6.81836c5.95508 0 11.9092 2.27246 16.4551 6.81836z" />
    <glyph glyph-name="uniF10D" unicode="&#xf10d;" 
d="M449.716 208.158c0.380859 -5.30859 0.576172 -10.7441 0.576172 -16.1582c0 -124.146 -100.999 -225.145 -225.145 -225.145c-124.146 0 -225.147 101 -225.147 225.145s101.001 225.146 225.146 225.145c49.167 0 95.8682 -15.5645 135.058 -45.0117
c6.04004 -4.53809 7.25684 -13.1143 2.7168 -19.1543c-4.53906 -6.03809 -13.1133 -7.25586 -19.1543 -2.71777c-34.4092 25.8574 -75.4287 39.5254 -118.619 39.5254c-109.062 0 -197.787 -88.7266 -197.787 -197.786s88.7256 -197.787 197.786 -197.787
c109.06 0 197.785 88.7266 197.785 197.787c0 4.75977 -0.168945 9.53613 -0.505859 14.1914c-0.541992 7.53516 5.12598 14.085 12.6621 14.6279c7.5459 0.529297 14.085 -5.12598 14.6279 -12.6611zM496.395 386.23c20.8066 -20.8096 20.8066 -54.665 0 -75.4727
l-247.575 -247.576c-6.89551 -6.89453 -15.9512 -10.3418 -25.0088 -10.3418c-9.05566 0 -18.1113 3.44727 -25.0068 10.3418l-120.341 120.342c-20.8076 20.8076 -20.8076 54.666 0 75.4736c20.8086 20.8066 54.666 20.8066 75.4736 0l69.874 -69.875l197.11 197.108
c20.8076 20.8066 54.666 20.8066 75.4736 0zM477.049 330.103c10.1406 10.1416 10.1406 26.6406 0 36.7812c-10.1406 10.1416 -26.6426 10.1416 -36.7812 0l-199.114 -199.117c-4.63086 -4.63086 -10.79 -7.18164 -17.3418 -7.18164
c-6.54785 0 -12.7061 2.5498 -17.3389 7.18066l-71.8818 71.8828c-5.06836 5.07031 -11.7285 7.60547 -18.3896 7.60547s-13.3203 -2.53418 -18.3906 -7.60547c-10.1406 -10.1416 -10.1406 -26.6406 0 -36.7812l120.342 -120.342
c3.12012 -3.12012 8.19922 -3.12012 11.3193 0z" />
    <glyph glyph-name="uniF109" unicode="&#xf109;" 
d="M256 448c141.964 0 256 -114.036 256 -256s-114.036 -256 -256 -256s-256 114.036 -256 256s114.036 256 256 256zM403.782 272.291c4.6543 4.6543 4.6543 11.6367 0 15.127l-16.291 16.291c-4.65527 4.6543 -11.6367 4.6543 -16.291 0h-1.16406l-155.927 -161.745
c-2.32715 -2.32715 -5.81836 -2.32715 -8.14551 0l-64 68.6543l-1.16406 1.16406c-4.6543 4.6543 -11.6357 4.6543 -16.291 0l-16.291 -16.291c-2.32715 -2.32715 -3.49023 -5.81836 -3.49023 -8.14551s1.16309 -5.81836 3.49023 -8.14551l2.32812 -2.32715
l90.7637 -97.7461c1.16309 -2.32715 4.6543 -3.49023 8.14453 -3.49023c3.49121 0 5.81836 1.16309 8.14551 3.49023l186.183 193.164v0z" />
    <glyph glyph-name="uniF103" unicode="&#xf103;" 
d="M505.824 444.328c7.11133 -5.76855 8.25586 -16.2637 2.53613 -23.4404l-273.641 -344.359c-3.20801 -4.32812 -8.28809 -6.87988 -13.5039 -6.87988c-0.551758 0 -1.08789 0.287109 -1.61621 0.351562c-0.943359 -0.160156 -1.87207 -0.423828 -2.79199 -0.423828
c-5.83984 0 -11.2559 3.08789 -14.1436 8.25586l-95.4316 120.088c-5.72852 7.19238 -4.58398 17.6797 2.51953 23.4482c7.0957 5.77539 17.4961 4.61621 23.2002 -2.56055l86.248 -108.52l263.432 331.479c5.7041 7.16797 16.0801 8.32812 23.1924 2.56055z
M473.272 278.528c9.13574 0 16.5195 -7.45605 16.5117 -16.6719v-275.824c0 -27.5918 -22.2158 -50.04 -49.5283 -50.04h-390.728c-27.3125 0 -49.5205 22.4482 -49.5205 50.04v394.824c0 27.5918 22.208 50.0312 49.5205 50.0312h270.487
c9.12012 0 16.5039 -7.47168 16.5039 -16.6719c0 -9.21582 -7.37598 -16.6875 -16.5039 -16.6875h-270.487c-9.10449 0 -16.5127 -7.48828 -16.5127 -16.6719v-394.824c0 -9.19238 7.40039 -16.6807 16.5127 -16.6807h390.735c9.10449 0 16.5127 7.48828 16.5127 16.6807
v275.824c0 9.20801 7.37598 16.6719 16.4961 16.6719z" />
    <glyph glyph-name="uniF10A" unicode="&#xf10a;" 
d="M479.057 241.491c14.6631 -11.9121 32.9434 -26.7441 32.9434 -49.4043c0 -22.8506 -18.5127 -38.127 -33.4082 -50.3984c-5.86035 -4.8457 -15.7207 -12.9492 -16.9902 -16.6094c-1.16211 -3.80957 2.05371 -16.4824 3.97852 -24.0781
c4.92871 -19.4443 10.5146 -41.5117 -2.49707 -59.3477c-12.9277 -17.752 -35.4404 -19.2539 -55.2861 -20.6084c-7.95605 -0.529297 -21.2637 -1.41797 -24.6279 -3.89258c-3.42676 -2.51855 -8.4209 -14.8955 -11.4248 -22.2793
c-7.46875 -18.4072 -15.8906 -39.2471 -36.582 -46.293c-21.0098 -7.19434 -40.8145 5.45898 -56.6816 15.5508c-7.15234 4.57031 -17.9844 11.4678 -22.4912 11.4678c-4.6123 0 -15.6152 -6.98242 -22.9141 -11.5947
c-13.2451 -8.33691 -27.9277 -17.6455 -43.8389 -17.6455c-4.02051 0 -8.14648 0.592773 -12.3145 1.96777c-20.7773 6.70703 -29.2607 27.6963 -36.751 46.209c-3.02441 7.46875 -8.06055 19.9092 -11.4043 22.3428c-3.34277 2.43359 -16.4814 3.28027 -24.332 3.83008
c-18.8936 1.26953 -42.3789 2.83496 -55.7295 20.4814c-13.6895 18.1523 -7.65918 41.2578 -2.83496 59.8125c1.98926 7.55371 5.28906 20.2061 4.01953 24.0986c-1.29102 3.93652 -10.833 11.8701 -17.1582 17.1172c-14.5771 12.1025 -32.7314 27.1885 -32.7314 49.8906
c0 22.8506 18.5127 38.1045 33.3887 50.3789c5.88281 4.84473 15.7422 12.9482 17.0117 16.6084c1.18457 3.8291 -2.11523 16.6514 -4.0625 24.3105c-4.95117 19.2744 -10.5566 41.1094 1.94727 58.8184c12.7373 18.0264 35.3965 19.5508 55.3906 20.9043
c7.99805 0.529297 21.3916 1.41797 24.7344 3.89355c3.42676 2.51758 8.4209 14.874 11.4248 22.2783c7.46875 18.3652 15.8887 39.2266 36.6035 46.2725c21.0518 7.15137 41.0244 -5.71191 56.998 -16.1016c7.23633 -4.69629 18.1328 -11.7852 22.5547 -11.7852
c4.61133 0 15.6348 6.9834 22.9561 11.5957c16.6084 10.5146 35.4814 22.4688 56.1318 15.7197c20.7559 -6.68555 29.2607 -27.6748 36.7295 -46.1875c3.02539 -7.46973 8.08203 -19.9316 11.4463 -22.3643c3.32227 -2.41211 16.4824 -3.28027 24.332 -3.83008
c18.957 -1.27051 42.5479 -2.83594 55.666 -20.7139c13.1807 -18.0049 7.29883 -40.877 2.58105 -59.2637c-1.96777 -7.61621 -5.24707 -20.417 -3.97754 -24.3945c1.24707 -3.83008 11.2129 -11.9121 17.2002 -16.7568zM451.7 174.314
c5.77539 4.78125 16.4189 13.5615 17.9199 17.6855c-1.56543 3.93457 -11.7002 12.124 -17.2012 16.6094c-12.0391 9.75391 -25.6855 20.8184 -30.7852 36.582c-5.05664 15.6562 -0.65625 32.8154 3.21582 47.9648c1.98926 7.65918 5.26953 20.5225 3.97852 24.2471
c-2.51758 1.52246 -15.9951 2.43262 -24.0352 2.98242c-16.292 1.0791 -33.1133 2.2002 -46.2939 11.7217c-13.2656 9.54199 -19.6982 25.4307 -25.918 40.792c-3.00391 7.4043 -8.01953 19.8027 -11.2773 22.1514c-2.32812 -0.507812 -13.2451 -7.42578 -19.7617 -11.5518
c-13.4141 -8.48438 -28.6689 -18.1318 -45.5322 -18.1318c-16.9463 0 -32.1807 9.88086 -45.5947 18.5977c-6.49609 4.21094 -17.3711 11.2783 -21.2852 11.3408c-1.94629 -1.88281 -7.0459 -14.4082 -10.0498 -21.9199
c-6.15723 -15.1904 -12.5264 -30.8896 -25.665 -40.5166c-13.2656 -9.71094 -30.3828 -10.875 -46.9072 -11.9756c-7.87109 -0.52832 -21.0312 -1.41797 -24.2676 -3.74414c-0.253906 -2.47559 3.08887 -15.4668 5.07812 -23.2314
c4.10449 -16.0801 8.37891 -32.71 3.19434 -48.2188c-5.03613 -15.1279 -17.8369 -25.6865 -30.2139 -35.8838c-5.96582 -4.8877 -17.0742 -14.0488 -18.0254 -18.0264c0.90918 -3.25781 11.7217 -12.25 17.5186 -17.0742
c11.8701 -9.85938 25.3047 -21.0527 30.3623 -36.6455c5.03613 -15.6152 0.570312 -32.71 -3.34375 -47.7959c-2.00977 -7.61719 -5.33203 -20.417 -4.01953 -24.1621c2.58203 -1.75586 16.8213 -2.70801 24.459 -3.2168c16.2695 -1.07812 33.0703 -2.19922 46.251 -11.6992
c13.2656 -9.54297 19.6982 -25.4326 25.918 -40.8145c3.00391 -7.40527 7.99805 -19.8027 11.2773 -22.1523c2.32715 0.508789 13.2441 7.44727 19.7607 11.5527c13.4561 8.50586 28.6689 18.1533 45.5527 18.1533c16.8633 0 31.9492 -9.62695 45.2568 -18.0898
c6.45312 -4.10352 17.2227 -11.0225 21.0732 -11.0225c2.09473 1.9043 7.17285 14.4512 10.1768 21.9404c6.15723 15.1924 12.5264 30.9121 25.665 40.5391c13.2666 9.73242 31.0811 10.917 46.8018 11.9756c7.93359 0.507812 21.1992 1.41797 24.416 3.83008
c0.443359 2.68652 -2.85645 15.6982 -4.82422 23.4844c-4.04102 15.9531 -8.23047 32.4561 -3.08887 47.8594c5.03613 15.1279 17.8369 25.6855 30.2139 35.8633zM350.608 271.81c8.9707 -7.48926 10.1338 -20.8193 2.64355 -29.79l-109.173 -130.546
c-3.80762 -4.54883 -9.33105 -7.29883 -15.2969 -7.55273c-0.295898 -0.0419922 -0.614258 -0.0419922 -0.910156 -0.0419922c-5.60742 0 -11.0029 2.2002 -14.959 6.19922l-56.4922 56.4922c-8.27246 8.27148 -8.27246 21.6436 0 29.917
c8.27246 8.27246 21.6445 8.27246 29.917 0l40.1367 -40.1152l94.3438 112.793c7.46777 8.9502 20.7764 10.1768 29.79 2.64453z" />
    <glyph glyph-name="uniF106" unicode="&#xf106;" 
d="M256 448c140.8 0 256 -115.2 256 -256s-115.2 -256 -256 -256s-256 115.2 -256 256s115.2 256 256 256zM204.8 64l230.4 230.4l-35.8398 35.8398l-194.561 -194.561l-92.1602 92.1602l-35.8398 -35.8398z" />
    <glyph glyph-name="uniF10C" unicode="&#xf10c;" 
d="M255.995 448c141.162 0 256.005 -114.842 256.005 -256s-114.843 -256 -256.005 -256s-255.995 114.842 -255.995 256s114.833 256 255.995 256zM255.995 -30.4258c122.645 0 222.428 99.7812 222.427 222.426c0 122.645 -99.7812 222.425 -222.427 222.425
c-122.646 0 -222.421 -99.7793 -222.421 -222.425c0 -122.645 99.7764 -222.426 222.421 -222.426zM348.68 275.807c6.5498 6.55859 17.1797 6.55859 23.7363 0.000976562c6.55957 -6.55273 6.55957 -17.1846 0 -23.7383l-143.832 -143.831
c-0.0166016 -0.0166016 -0.0244141 -0.03125 -0.0351562 -0.0449219c-3.27637 -3.2793 -7.58203 -4.91797 -11.877 -4.91797c-4.29395 0 -8.58887 1.63867 -11.8672 4.91309l-65.2324 65.2217c-6.55957 6.55762 -6.55957 17.1816 0 23.7422
c6.55762 6.55664 17.1807 6.55371 23.7383 0.00390625l53.3613 -53.3506z" />
    <glyph glyph-name="uniF10F" unicode="&#xf10f;" 
d="M472.832 396.614c8.23438 9.2832 22.4287 10.0312 31.6816 1.7666s10.0312 -22.459 1.7666 -31.7119l-339.277 -379.313c-4.28125 -4.79102 -10.3604 -7.48633 -16.7393 -7.48633c-0.418945 0 -0.837891 0.0302734 -1.25684 0.0302734
c-6.79785 0.389648 -13.0859 3.86328 -17.0391 9.43262l-127.835 180.119c-7.1875 10.1221 -4.79199 24.1357 5.33008 31.3223c10.0908 7.1875 24.1953 4.79199 31.292 -5.33008l111.546 -157.151z" />
    <glyph glyph-name="uniF110" unicode="&#xf110;" 
d="M504.502 372.504c9.99707 -9.99805 9.99805 -26.207 0 -36.2041l-324.806 -324.806c-9.99023 -9.99023 -26.21 -9.99707 -36.2041 0l-135.994 135.992c-9.99805 9.99805 -9.99805 26.2061 0 36.2031c9.99902 9.99609 26.207 9.99707 36.2041 0l117.892 -117.893
l306.704 306.707c9.99902 9.99805 26.207 9.99805 36.2041 0z" />
    <glyph glyph-name="uniF108" unicode="&#xf108;" 
d="M437.01 10.9902c-99.8818 -99.9873 -262.033 -99.9873 -362.02 0c-99.9873 99.9863 -99.9873 262.033 0 362.02c99.9863 99.9873 262.033 99.9873 362.02 0c99.9873 -99.9863 99.9873 -262.033 0 -362.02zM164.215 231.127l-44.6123 -44.6123l57.5684 -57.5674
l44.6123 -44.6133l44.7168 44.6133l126.002 126.001l-44.6123 44.6133l-126.106 -126.002z" />
    <glyph glyph-name="uniF105" unicode="&#xf105;" 
d="M424.482 280.693c6.80078 0 12.3164 -5.51562 12.3164 -12.3164v-320.059c0 -6.80078 -5.51562 -12.3164 -12.3164 -12.3164h-412.166c-6.80078 0 -12.3164 5.51562 -12.3164 12.3164v412.164c0 6.80078 5.51562 12.3164 12.3164 12.3164h313.64
c6.80273 0 12.3164 -5.51562 12.3164 -12.3164s-5.51367 -12.3164 -12.3164 -12.3164h-301.323v-387.531h387.533v307.742c0 6.80078 5.51562 12.3164 12.3164 12.3164zM508.392 444.392c4.81152 -4.80957 4.81152 -12.6084 0 -17.418l-334.608 -334.607
c-2.40527 -2.40625 -5.55664 -3.6084 -8.70996 -3.6084c-3.15234 0 -6.30566 1.20215 -8.70898 3.6084l-89.5732 89.5723c-4.80957 4.80762 -4.80957 12.6055 0 17.415c4.80762 4.81152 12.6084 4.81152 17.418 0l80.8623 -80.8623l325.902 325.9
c4.80957 4.81348 12.6084 4.80957 17.418 0z" />
    <glyph glyph-name="uniF10E" unicode="&#xf10e;" 
d="M151.04 240.64l79.3604 -79.3594l220.159 220.16l35.8408 -35.8408l-256 -256l-115.2 115.2zM460.8 192h51.2002c0 -140.8 -115.2 -256 -256 -256s-256 115.2 -256 256s115.2 256 256 256c33.2803 0 66.5596 -7.67969 97.2812 -17.9199l-40.9609 -40.96
c-17.9199 5.12012 -35.8398 7.67969 -56.3203 7.67969c-112.64 0 -204.8 -92.1602 -204.8 -204.8s92.1602 -204.8 204.8 -204.8s204.8 92.1602 204.8 204.8z" />
    <glyph glyph-name="uniF111" unicode="&#xf111;" 
d="M5.90723 172.308c-3.93848 3.93848 -5.90723 9.84668 -5.90723 13.7852s1.96875 9.8457 5.90723 13.7842l27.5693 27.5693c7.87695 7.87695 19.6924 7.87695 27.5693 0l1.96973 -1.96973l108.308 -116.185c3.93848 -3.93848 9.8457 -3.93848 13.7842 0l263.877 273.724
h1.96973v0c7.87695 7.87695 19.6924 7.87695 27.5693 0l27.5693 -27.5693c7.87598 -7.87695 7.87598 -19.6924 0 -27.5693v0l-315.077 -326.893c-3.93848 -3.93848 -7.87695 -5.90723 -13.7852 -5.90723c-5.90723 0 -9.8457 1.96875 -13.7842 5.90723l-153.601 165.416z" />
    <glyph glyph-name="uniF112" unicode="&#xf112;" 
d="M509.642 400.593c2.83496 -3.83398 3.58105 -9.35645 -0.385742 -13.9365c-58.4219 -67.5635 -117.582 -143.625 -160.729 -224.699c-2.66016 -5.50684 -5.40137 -10.9453 -8.3584 -16.2197c-7.56836 -15.1104 -14.623 -30.3662 -20.9121 -45.7812
c-10.873 -26.6504 -21.7451 -53.3311 -31.6455 -80.3584c-3.09375 -8.44922 -13.1934 -57.1055 -24.2354 -58.6973c1.84668 0.269531 3.25488 -1.68555 1.86621 -3.20703c-1.20117 -1.32422 -2.35352 -1.96484 -3.44434 -2.16992
c0.694336 -3.90137 -1.17383 -8.2334 -5.79395 -9.65039c-13.3955 -4.1084 -29.5293 -1.30566 -43.3496 -0.199219c-15.8086 1.26562 -31.3008 3.11035 -46.7803 6.58887c-2.07031 0.46582 -3.41113 1.75586 -4.19238 3.34961
c-3.2793 0.422852 -6.44336 2.23242 -7.96973 6.02344c-42.0703 104.399 -123.95 195.878 -153.49 304.527c-1.37891 5.06738 4.03613 8.44629 7.98633 6.75781c0.640625 1.30859 1.65332 2.52051 3.43848 3.37109c10.9717 5.23145 23.2305 8.72168 34.9814 11.6855
c8.62109 2.17285 19.1484 5.87012 27.2852 1.12793c3.12109 1.40332 7.0625 0.956055 8.78906 -2.69238c32.7891 -69.2861 66.8467 -137.588 103.546 -204.804c3.31445 28.1582 24.3945 65.1914 32.2754 83.5322c18.5439 43.1592 40.0996 84.7773 59.166 127.688
c19.9141 44.8193 40.0166 106.295 82.1914 135.573c2.96777 2.06055 6.41992 3.39844 10.0811 4.39453c-0.893555 3.27441 1.11719 7.54199 5.24023 7.49316c41.0283 -0.476562 106.995 1.61328 133.301 -37.0547c0.598633 -0.876953 0.956055 -1.76562 1.13965 -2.64355z
M65.5283 268.742c2.19141 1.93652 5.26855 2.87891 8.06934 2.46387c-0.490234 1.35449 -1.04785 2.68457 -1.53223 4.04395c-2.53125 -1.38086 -5.40918 -2.2373 -8.35254 -2.95117c0.606445 -1.18457 1.19043 -2.38477 1.81543 -3.55664zM110.512 178.352
c0.62207 0.625 1.25195 1.25195 1.99512 1.70996c-2.86426 5.90723 -5.64355 11.8496 -8.40527 17.8027c-0.0273438 -0.0458984 -0.0517578 -0.0917969 -0.078125 -0.137695c1.68262 -5.52441 3.1875 -11.1172 4.57129 -16.7549
c0.0976562 -0.119141 0.223633 -0.15918 0.31543 -0.286133c0.557617 -0.766602 1.05273 -1.56641 1.60156 -2.33398zM230.257 -36.1084c2.30469 0.102539 4.60938 0.197266 6.91406 0.231445c-1.50488 1.77246 -2.33105 4.19238 -1.60742 7.27051
c0.298828 1.26562 0.675781 2.49609 0.980469 3.75879c-1.63672 -1.43848 -3.31152 -2.82715 -5.0752 -4.08984c0.55957 -2.47461 0.211914 -5.1543 -1.21191 -7.1709zM287.88 77.3438c1.57715 4.00195 3.25195 7.95703 4.8916 11.9336
c-0.637695 -0.476562 -1.31641 -0.915039 -1.96484 -1.38672c-3.06445 -7.4502 -6.12891 -14.9033 -8.9668 -22.4121c-0.118164 -1.13965 -0.255859 -2.27051 -0.398438 -3.39551c2.3291 5.29102 4.52637 10.4121 6.43848 15.2607zM341.654 189.267
c0.460938 1.10938 0.926758 2.2168 1.37891 3.33105c-12.5469 -21.7715 -25.2236 -43.4893 -36.8145 -65.7783c2.91797 3.55176 5.69727 7.2373 8.34668 11.0498c8.47559 17.3994 17.5547 34.5156 27.0889 51.3975zM407.624 389.278
c3.91504 3.69727 7.80859 7.45898 11.7451 11.3633c1.68262 1.67188 3.53223 2.31543 5.35254 2.49316c-1.81152 0.56543 -3.61914 1.06543 -5.42773 1.56445c-0.30957 0.00195312 -0.614258 -0.0302734 -0.923828 -0.0332031
c-2.78906 -4.26172 -5.69727 -8.17969 -8.69141 -11.9189c-0.724609 -1.14746 -1.38965 -2.30762 -2.05469 -3.46875z" />
  </font>
</defs>
</svg>
